Image 01
profile-image

Nivelir

Nivelir Ubuntu , Ukraine
test
GDM2Setup

GDM Themes 22 comments

Score 50.0%
Mar 27 2010
>At what point does this occur? Immediately after installing? Or after making a specific use of the tool?
After lunching of the tool. Seriously, I run it once for quick view of options there, than closed it. And after reboot had problems. Just open it and close. May be it's because I use localized (Ukrainian) version of Mint? Probably with English localization it works well.
If you have some ideas how can I help you with this issue I will test app in some way, just say how. - Apr 13 2010
I using GDM2Setup 0.5.3. It's still installed, but truly it's almost useless in Mint (only for XSplash). Sad that your app can't adjust GDM themes, hope you will work on it.
I post my first reply for guys like ubuntico, think it will help in such problems. - Apr 10 2010
1) yes, with shutdown options and etc;
2) I installed latest *.deb version. - Apr 10 2010
Interesting, I had the same situation.
I run app, but didn't change there anything. And after reboot my login screen was changed (I use Mint 8 Gnome), there was no bottom panel. And system didn't accept my password.
So I just enter 'root' as user and it's pass. And reenable standard login settings in Administrate menu. - Apr 09 2010
gCue2tracks

Audio Apps 104 comments

Score 72.2%
Feb 16 2013
Пожалуйста (требуется регистрация):
http://losslessclub.com/details.php?id=8039 - Apr 12 2010
Интересная особенность, программа останавливается если в теге есть умлаут (возможно и другие подобные символы).
Например:
Quote:
TRACK 09 AUDIO
TITLE "Get Up ... Carmen"
PERFORMER "Waldeck"
INDEX 00 02:51:13
INDEX 01 31:44:31
TRACK 10 AUDIO
TITLE "Bei mir bist du schön (dub)"
PERFORMER "Waldeck"
INDEX 00 02:51:13
INDEX 01 35:45:29


Log пишет следующее:
Quote:
Decoding to wav
split tracks
start encode
Encoding "Get Up ... Carmen" (1/2)
/usr/bin/flac -T TITLE="Get Up ... Carmen" -T ALBUM="Ballroom Stories" -T TRACKNUMBER=09 -T ARTIST="Waldeck" -T GENRE="Trip-Hop" -T DATE="2007" -T DESCRIPTION="gCue2tracks" -T COMPOSER="" --best /tmp/gcue2tracksUeKNFw/split-track09.wav


к следующему файлу уже не переходя.
Если заменить на простую "о" то всё работает нормально. - Feb 25 2010
Интересная особенность, программа останавливается если в теге есть умлаут (возможно и другие подобные символы).
Например:
Quote:
TRACK 09 AUDIO
TITLE "Get Up ... Carmen"
PERFORMER "Waldeck"
INDEX 00 02:51:13
INDEX 01 31:44:31
TRACK 10 AUDIO
TITLE "Bei mir bist du schön (dub)"
PERFORMER "Waldeck"
INDEX 00 02:51:13
INDEX 01 35:45:29


Log пишет следующее:
Quote:
Decoding to wav
split tracks
start encode
Encoding "Get Up ... Carmen" (1/2)
/usr/bin/flac -T TITLE="Get Up ... Carmen" -T ALBUM="Ballroom Stories" -T TRACKNUMBER=09 -T ARTIST="Waldeck" -T GENRE="Trip-Hop" -T DATE="2007" -T DESCRIPTION="gCue2tracks" -T COMPOSER="" --best /tmp/gcue2tracksUeKNFw/split-track09.wav


к следующему файлу уже не переходя.
Если заменить на простую "о" то всё работает нормально. - Feb 25 2010
Э.. ошибочка вышла с последним предложением, работает без перезапуска. - Feb 18 2010
Отличная программа, главное имеет понятный интерфейс. Но почему она не работает с символичными линками в пути исходящих файлов (save to)? Или это только у меня?
Сколько не пытался, процес зависал на этапе копирования нарезаных файлов во входящую папку.
Стоит отметить, что приложение очень долго (около минуты) но всё же создаёт новую папку.

И хотелось бы иметь возможность закидывать новые куи после предыдущей операции, а не запускать программу заново. - Feb 18 2010